ประยุกต์ใช้ ระบบเหรียญ โพสล่าสุด โพสสำคัญ เครื่องมือ สมาชิก สถิติฟอรั่ม ระบบธนาคาร

  • 254เข้าชม
  • 1ตอบกลับ

Riddick3.Unrated.DC.2013.1080p.Web-DL.x264CtHts [Sound:Eng][Subtitle:Th-Eng]

เพศ : ไม่ระบุเพศ

โพสต์ : 2230

สำคัญ : 0

เงิน : 0
ความดี : 2232
เครดิต : 2231
จิตพิสัย: 2232
ออนไลน์ : 179 ชม

[center][/center]

[imdb]tt1411250[/imdb]



...Riddick 3  คือภาคที่สามของหนังแอ็คชั่นไซไฟระทึกขวัญที่ต่อยอดมาจากหนังภาคแรก Pitch Black (2000) และภาคสอง The Chronicles of Riddick (2004)
วิน ดีเซล กลับมารับบทเดิมคือ ริดดิกตัวละครที่เป็นชื่อเดียวกับภาพยนตร์  และได้กลับมาร่วมงานกับผู้กำกับและผู้เขียนบทเจ้าเก่าทั้งสองภาคก่อนหน้าอย่าง เดวิด ทูฮี
ในภาคนี้โครงเรื่องจับไปที่ แอนตี้ฮีโร่ ริดดิค ที่ถูกทิ้งให้ตายอยู่บนดาวร้างเต็มไปด้วยทะเลทราย ซึ่งเป็นที่ที่เขาได้พบว่าตัวเองต้องต่อสู้กับฝูงเอเลี่ยนอสูรนักล่า
ที่ดุร้ายกว่ามนุษย์หน้าไหนที่เขาเคยปะทะมา
  ริดดิกจำเป็นต้องใช้สัญญาณเพื่อเรียกให้บรรดานักล่าค่าหัวที่ริดดิกหลบหนีมาตลอด ซึ่งหวังจะล่าหัวเขาให้มายังดาวดวงนี้ เพราะมันเป็นความหวังเดียว
ที่ริดดิกจะใช้หนีออกไปให้พ้นจากดาวมฤตยู แต่กลุ่มนักล่าค่าหัวที่มาถึงคือพวกที่โหดร้ายและเป็นอันตรายที่สุดเท่าที่ริดดิกเคยเจอ
และหนึ่งในผู้ที่เดินทางมากับยานลำนี้ คือกัปตันผู้ซึ่งมีความแค้นในใจกับริดดิกโดยเฉพาะ!!!

Format                                   : Matroska
Format version                           : Version 4 / Version 2
File size                                : 4.09 GiB
Duration                                 : 2h 6mn
Overall bit rate                         : 4 623 Kbps
Movie name                               : Riddick.Unrated.DC.2013.1080p.Web-DL.x264_by NongZEZA@CtHts
Encoded date                             : UTC 2010-02-22 21:41:31
Writing application                      : mkvmerge v5.9.0 ( On The Loose ) built on Dec  9 2012 15:37:01
Writing library                          : libebml v1.3.0 + libmatroska v1.4.0

Video
ID                                       : 1
Format                                   : AVC
Format/Info                              : Advanced Video Codec
Format profile                           : [email protected]
Format settings, CABAC                   : Yes
Format settings, ReFrames                : 5 frames
Codec ID                                 : V_MPEG4/ISO/AVC
Duration                                 : 2h 6mn
Bit rate                                 : 3 955 Kbps
Width                                    : 1 916 pixels
Height                                   : 796 pixels
Display aspect ratio                     : 2.40:1
Frame rate mode                          : Constant
Frame rate                               : 23.976 fps
Color space                              : YUV
Chroma subsampling                       : 4:2:0
Bit depth                                : 8 bits
Scan type                                : Progressive
Bits/(Pixel*Frame)                       : 0.108
Stream size                              : 3.50 GiB (86%)
Title                                    : Riddick.Unrated.DC.2013.1080p.Web-DL.x264_by NongZEZA@CtHts
Language                                 : English
Default                                  : Yes
Forced                                   : No
Color primaries                          : BT.709
Transfer characteristics                 : BT.709
Matrix coefficients                      : BT.709

Audio #1
ID                                       : 2
Format                                   : AC-3
Format/Info                              : Audio Coding 3
Mode extension                           : CM (complete main)
Format settings, Endianness              : Big
Codec ID                                 : A_AC3
Duration                                 : 2h 6mn
Bit rate mode                            : Constant
Bit rate                                 : 384 Kbps
Channel(s)                               : 6 channels
Channel positions                        : Front: L C R, Side: L R, LFE
Sampling rate                            : 48.0 KHz
Bit depth                                : 16 bits
Compression mode                         : Lossy
Stream size                              : 348 MiB (8%)
Title                                    : English
Language                                 : English
Default                                  : Yes
Forced                                   : No

Audio #2
ID                                       : 3
Format                                   : AC-3
Format/Info                              : Audio Coding 3
Mode extension                           : CM (complete main)
Format settings, Endianness              : Big
Codec ID                                 : A_AC3
Duration                                 : 2h 6mn
Bit rate mode                            : Constant
Bit rate                                 : 192 Kbps
Channel(s)                               : 2 channels
Channel positions                        : Front: L R
Sampling rate                            : 48.0 KHz
Bit depth                                : 16 bits
Compression mode                         : Lossy
Stream size                              : 174 MiB (4%)
Title                                    : Thai Rong By Junjao
Language                                 : Thai
Default                                  : No
Forced                                   : No

Text #1
ID                                       : 4
Format                                   : VobSub
Codec ID                                 : S_VOBSUB
Codec ID/Info                            : The same subtitle format used on DVDs
Title                                    : Thai 480p By NongZEZA~
Language                                 : Thai
Default                                  : No
Forced                                   : No

Text #2
ID                                       : 5
Format                                   : VobSub
Codec ID                                 : S_VOBSUB
Codec ID/Info                            : The same subtitle format used on DVDs
Title                                    : Thai 720p By NongZEZA~
Language                                 : Thai
Default                                  : No
Forced                                   : No

Text #3
ID                                       : 6
Format                                   : VobSub
Codec ID                                 : S_VOBSUB
Codec ID/Info                            : The same subtitle format used on DVDs
Title                                    : Thai 1080p By NongZEZA~
Language                                 : Thai
Default                                  : Yes
Forced                                   : Yes

Text #4
ID                                       : 7
Format                                   : VobSub
Codec ID                                 : S_VOBSUB
Codec ID/Info                            : The same subtitle format used on DVDs
Title                                    : Thai 1080p By NongZEZA~[Yellow]
Language                                 : Thai
Default                                  : No
Forced                                   : No

Text #5
ID                                       : 8
Format                                   : VobSub
Codec ID                                 : S_VOBSUB
Codec ID/Info                            : The same subtitle format used on DVDs
Title                                    : Thai 1080p By NongZEZA~[Out]
Language                                 : Thai
Default                                  : No
Forced                                   : No

Text #6
ID                                       : 9
Format                                   : VobSub
Codec ID                                 : S_VOBSUB
Codec ID/Info                            : The same subtitle format used on DVDs
Title                                    : Thai 1080p By NongZEZA~[BIG]
Language                                 : Thai
Default                                  : No
Forced                                   : No

Text #7
ID                                       : 10
Format                                   : PGS
Codec ID                                 : S_HDMV/PGS
Codec ID/Info                            : The same subtitle format used on BDs/HD-DVDs
Title                                    : Thai PGS By NongZEZA~
Language                                 : Thai
Default                                  : No
Forced                                   : No

Text #8
ID                                       : 11
Format                                   : PGS
Codec ID                                 : S_HDMV/PGS
Codec ID/Info                            : The same subtitle format used on BDs/HD-DVDs
Title                                    : Thai PGS By NongZEZA~[Out]
Language                                 : Thai
Default                                  : No
Forced                                   : No

Text #9
ID                                       : 12
Format                                   : PGS
Codec ID                                 : S_HDMV/PGS
Codec ID/Info                            : The same subtitle format used on BDs/HD-DVDs
Title                                    : Thai PGS By NongZEZA~[Yellow]
Language                                 : Thai
Default                                  : No
Forced                                   : No

Text #10
ID                                       : 13
Format                                   : UTF-8
Codec ID                                 : S_TEXT/UTF8
Codec ID/Info                            : UTF-8 Plain Text
Title                                    : English
Language                                 : English
Default                                  : No
Forced                                   : No



http://www.youtube.com/watch?v=Jg3pPE_2Hco







Riddick3.Unrated.DC.2013.1080p.Web-DL.x264.CtHts.mkv    
http://www.filecondo.com/dl.php?f=5b85df1vTDj6    4.4 GB

บทความที่เกี่ยวข้อง

เพศ : ชาย

โพสต์ : 9

สำคัญ : 0

เงิน : 0
ความดี : 10
เครดิต : 1
จิตพิสัย: 10
ออนไลน์ : 3 ชม
ขอบคุณครับ
รายละเอียดไฟล์แนบ
กล่องตอบกลับด่วน

คุณไม่มีสิทธิ์ใช้งานส่วนนี้, กรุณาเข้าสู่ระบบ หรือ ลงทะเบียน
กรุณาใช้ข้อความที่สุภาพ คุณสามารถบันทึกฉบับร่างได้