ประยุกต์ใช้ ระบบเหรียญ โพสล่าสุด โพสสำคัญ เครื่องมือ สมาชิก สถิติฟอรั่ม ระบบธนาคาร

  • 324เข้าชม
  • 1ตอบกลับ

[FullHD+MiniHQ] Mr. Magorium s Wonder Emporium (2007) : มหัศจรรย์ร้านของเล่นพิลึกโลก [1080p][พากย์ไท

เพศ : ชาย

โพสต์ : 3210

สำคัญ : 0

เงิน : 0
ความดี : 3211
เครดิต : 2886
จิตพิสัย: 3211
ออนไลน์ : 218 ชม
[FullHD+MiniHQ] Mr. Magorium s Wonder Emporium (2007) : มหัศจรรย์ร้านของเล่นพิลึกโลก [1080p][พากย์ไทย5.1+อังกฤษDTS][บรรยายไทย+อังกฤษ]


http://www.imdb.com/title/tt0457419/  6.2/10
36,187 votes

ยินดีต้อนรับสู่ร้านขายของเล่นของมิสเตอร์มาโกเรี่ยม ที่ประหลาด มหัศจรรย์ และน่าตื่นตะลึงที่สุดในโลก มันคือสุดยอดร้านของเล่นที่ของทุกชิ้นมีชีวิต ความน่าพิศวงและเหลือเชื่อทุอย่างเกิดขึ้นที่นี่ทุกวันไม่เคยหยุดหย่อน กระทั่งวันนั้นเมื่อมิสเตอร์มาโกเรี่ยม เจ้าของร้านวัย 243 ปี (ดัสติน ฮอฟแมน) ประกาศยกร้านให้ผู้จัดการสาวน้อย มอลลี่ มาฮันนี่ ที่ขาดความมั่นใจในตัวเอง (นาตาลี พอร์ตแมน) ร้านก็แสดงความเกรี้ยวกราดออกมาทันที และเมื่อเฮนรี่นักบัญชีที่ไม่เชื่อในความมหัศจรรย์ (เจสัน เบตแมน) เข้ามาตรวจสอบของเล่นเลโก้และลินคอล์นล็อกส์ ร้านขายของเล่นที่เคยมีสีสันระยิบระยับก็กลับเปลี่ยนไป ของเล่นจอมซนทุกชิ้นยังอยู่ที่เดิม แต่พวกมันกลายเป็นสีเทาและเงียบงัน มีเพียงความช่วยเหลือจากเด็กชายอัจฉริยะวัย 9 ขวบ (แซค มิลส์) เท่านั้นที่สามารถปลุกร้านนี้ให้ฟื้นคืนชีพขึ้นมาอีกครั้ง

Format                         : Matroska
Format version                 : Version 2
File size                      : 3.49 GiB
Duration                       : 1h 34mn
Overall bit rate               : 5 300 Kbps
Movie name                     :  Mr.Magoriums.Wonder.Emporium.2007.1080p.DTS.BrRip.x264_hdfile4you.clubhd4you.net
Encoded date                   : UTC 2017-01-08 05:17:13
Writing application            : mkvmerge v5.8.0 ( No Sleep / Pillow ) built on Sep  2 2012 15:37:04
Writing library                : libebml v1.2.3 + libmatroska v1.3.0

Video
ID                             : 1
Format                         : AVC
Format/Info                    : Advanced Video Codec
Format profile                 : High@L4.1
Format settings, CABAC         : Yes
Format settings, ReFrames      : 4 frames
Codec ID                       : V_MPEG4/ISO/AVC
Duration                       : 1h 34mn
Bit rate                       : 4 011 Kbps
Width                          : 1 920 pixels
Height                         : 824 pixels
Display aspect ratio           : 2.35:1
Frame rate                     : 23.976 fps
Color space                    : YUV
Chroma subsampling             : 4:2:0
Bit depth                      : 8 bits
Scan type                      : Progressive
Bits/(Pixel*Frame)             : 0.106
Stream size                    : 2.63 GiB (75%)
Title                          :  Mr.Magoriums.Wonder.Emporium.2007.1080p.DTS.BrRip.x264_hdfile4you.clubhd4you.net
Writing library                : x264 core 144 r2525 40bb568
Encoding settings              : cabac=1 / ref=4 / deblock=1:1:1 / analyse=0x3:0x113 / me=umh / subme=10 / psy=1 / psy_rd=1.00:0.00 / mixed_ref=1 / me_range=48 / chroma_me=1 / trellis=2 / 8x8dct=1 / cqm=0 / deadzone=21,11 / fast_pskip=1 / chroma_qp_offset=-4 / threads=6 / lookahead_threads=1 / sliced_threads=0 / nr=0 / decimate=1 / interlaced=0 / bluray_compat=0 / constrained_intra=0 / bframes=4 / b_pyramid=2 / b_adapt=1 / b_bias=0 / direct=3 / weightb=1 / open_gop=0 / weightp=2 / keyint=250 / keyint_min=23 / scenecut=40 / intra_refresh=0 / rc_lookahead=40 / rc=2pass / mbtree=1 / bitrate=4011 / ratetol=1.0 / qcomp=0.60 / qpmin=0 / qpmax=69 / qpstep=4 / cplxblur=20.0 / qblur=0.5 / vbv_maxrate=14000 / vbv_bufsize=14000 / nal_hrd=none / filler=0 / ip_ratio=1.40 / aq=1:1.00
Language                       : English
Default                        : Yes
Forced                         : Yes

Audio #1
ID                             : 2
Format                         : AC-3
Format/Info                    : Audio Coding 3
Mode extension                 : CM (complete main)
Codec ID                       : A_AC3
Duration                       : 1h 34mn
Bit rate mode                  : Constant
Bit rate                       : 448 Kbps
Channel(s)                     : 6 channels
Channel positions              : Front: L C R, Side: L R, LFE
Sampling rate                  : 48.0 KHz
Bit depth                      : 16 bits
Compression mode               : Lossy
Delay relative to video        : 16ms
Stream size                    : 302 MiB (8%)
Title                          : THAI DVD 5.1 @ 448 Kbps
Language                       : Thai
Default                        : Yes
Forced                         : Yes

Audio #2
ID                             : 3
Format                         : DTS
Format/Info                    : Digital Theater Systems
Codec ID                       : A_DTS
Duration                       : 1h 34mn
Bit rate mode                  : Constant
Bit rate                       : 755 Kbps
Channel(s)                     : 6 channels
Channel positions              : Front: L C R, Side: L R, LFE
Sampling rate                  : 48.0 KHz
Bit depth                      : 24 bits
Compression mode               : Lossy
Stream size                    : 509 MiB (14%)
Title                          : ENG DTS 5.1 @ 755 Kbps
Language                       : English
Default                        : No
Forced                         : No

Text #1
ID                             : 4
Format                         : VobSub
Codec ID                       : S_VOBSUB
Codec ID/Info                  : The same subtitle format used on DVDs
Title                          : THAI 480p DVD Master
Language                       : Thai
Default                        : No
Forced                         : No

Text #2
ID                             : 5
Format                         : VobSub
Codec ID                       : S_VOBSUB
Codec ID/Info                  : The same subtitle format used on DVDs
Title                          : THAI 1080p
Language                       : Thai
Default                        : Yes
Forced                         : Yes

Text #3
ID                             : 6
Format                         : VobSub
Codec ID                       : S_VOBSUB
Codec ID/Info                  : The same subtitle format used on DVDs
Title                          : THAI 1080p Yellow
Language                       : Thai
Default                        : No
Forced                         : No

Text #4
ID                             : 7
Format                         : VobSub
Codec ID                       : S_VOBSUB
Codec ID/Info                  : The same subtitle format used on DVDs
Title                          : THAI 1080p Out
Language                       : Thai
Default                        : No
Forced                         : No

Text #5
ID                             : 8
Format                         : PGS
Codec ID                       : S_HDMV/PGS
Codec ID/Info                  : The same subtitle format used on BDs/HD-DVDs
Title                          : THAI PGS 1080p
Language                       : Thai
Default                        : No
Forced                         : No

Text #6
ID                             : 9
Format                         : PGS
Codec ID                       : S_HDMV/PGS
Codec ID/Info                  : The same subtitle format used on BDs/HD-DVDs
Title                          : THAI PGS 1080p Out
Language                       : Thai
Default                        : No
Forced                         : No

Text #7
ID                             : 10
Format                         : UTF-8
Codec ID                       : S_TEXT/UTF8
Codec ID/Info                  : UTF-8 Plain Text
Title                          : ENG SRT
Language                       : English
Default                        : No
Forced                         : No


FullHD 1080p
MiniHQ  1080p


ลิ๊งเดียวจบ

ตั้งชื่อไฟล์ตามแบบนี้เท่านั้น

1.Mr. Magorium s Wonder Emporium.part1.rar
2.Mr. Magorium s Wonder Emporium.part2.rar
3.Mr. Magorium s Wonder Emporium.part3.rar
4.Mr. Magorium s Wonder Emporium.part4.rar
5.Mr. Magorium s Wonder Emporium.part5.rar

ปล.  -- Winrar ใส่ Recovery Record 5% ทุกไฟล์ครับ --

บทความที่เกี่ยวข้อง

ระดับ : เด็กมัธยม
เพศ : ไม่ระบุเพศ

โพสต์ : 498

สำคัญ : 0

เงิน : 0
ความดี : 864
เครดิต : 1
จิตพิสัย: 864
ออนไลน์ : 177 ชม
ขอบคุณมากๆ ขอให้โชคดี มีแต่ความสุขความเจริญยิ่ง♥+ ★★★★★
รายละเอียดไฟล์แนบ
กล่องตอบกลับด่วน

คุณไม่มีสิทธิ์ใช้งานส่วนนี้, กรุณาเข้าสู่ระบบ หรือ ลงทะเบียน
กรุณาใช้ข้อความที่สุภาพ คุณสามารถบันทึกฉบับร่างได้