ประยุกต์ใช้ ระบบเหรียญ โพสล่าสุด โพสสำคัญ เครื่องมือ สมาชิก สถิติฟอรั่ม ระบบธนาคาร

  • 174เข้าชม
  • 0ตอบกลับ

[SuperHQ] Pacific Rim (2013) : แปซิฟิกริม สงครามอสูรเหล็ก [1080p][พากย์ไทย5.1+อังกฤษDTS][บรรยายไทย+อ

เพศ : ชาย

โพสต์ : 3216

สำคัญ : 0

เงิน : 0
ความดี : 3217
เครดิต : 2892
จิตพิสัย: 3217
ออนไลน์ : 218 ชม
[SuperHQ] Pacific Rim (2013) : แปซิฟิกริม สงครามอสูรเหล็ก [1080p][พากย์ไทย5.1+อังกฤษDTS][บรรยายไทย+อังกฤษ]


http://www.imdb.com/title/tt1663662/

เมื่อกองทัพสัตว์ประหลาดที่โหดร้ายในนามของ ไคจู อุบัติขึ้นมาจากทะเล จึงเกิดสงครามที่คร่าชีวิตคนนับล้านและทำลายทรัพยากรของมนุษย์มานานหลายปี ในการต่อสู้กับสัตว์ประหลาดตัวยักษ์ ไคจู ทำให้ต้องมีการประดิษฐ์คิดค้นอาวุธพิเศษขึ้นมา หุ่นยนต์ยักษ์ที่เรียกว่า เจเกอร์ส ซึ่งต้องควบคุมพร้อมกันโดยผู้ควบคุม 2 คน จิตของพวกเขาจะถูกเชื่อมต่อกับสะพานกระแสจิต แต่ถึงแม้เจเกอร์สจะพิสูจน์ว่าพวกเขาไม่สามารถปกป้องผู้คนให้พ้นจากไคจูจอมอึดได้ บนเส้นทางแห่งความพ่ายแพ้ กองกำลังแห่งมนุษยชาติไม่มีทางเลือก ต้องหวนไปหากลุ่มฮีโร่ที่ไม่น่าเชื่อ ทั้ง 2 คนอย่างอดีตนักบินตกอับ (ชาร์ลี ฮันแนม) และผู้ฝึกหัดที่ยังไม่ผ่านการทดสอบ (ริงโกะ คิคุจิ) ผู้ต้องมาร่วมทีมกันสร้างตำนานเจเกอร์สที่ตกยุคจากอดีต และพวกเขายังยืนหยัดอยู่เป็นความหวังสุดท้ายของเหล่ามวลมนุษย์ที่ต้องต่อสู้กับหายนะล้างโลกที่กำลังทวีคูณ…

General
Unique ID                   : 184033591153792264809112389953554994886 (0x8A739494F03F573AB74ACEFF49FBD6C6)
Complete name               : D:\Upl\Pacific.Rim.2013.1080p.SuperHQ.DTS.x264_hdfile4you.clubhd4you.net.mkv
Format                      : Matroska
Format version              : Version 4 / Version 2
File size                   : 4.34 GiB
Duration                    : 2 h 11 min
Overall bit rate mode       : Variable
Overall bit rate            : 4 733 kb/s
Movie name                  : Pacific.Rim.2013.1080p.SuperHQ.DTS.x264_hdfile4you.clubhd4you.net
Encoded date                : UTC 2017-01-11 08:48:18
Writing application         : mkvmerge v9.7.1 ('Pandemonium') 32bit
Writing library             : libebml v1.3.4 + libmatroska v1.4.5

Video
ID                          : 1
Format                      : AVC
Format/Info                 : Advanced Video Codec
Format profile              : [email protected]
Format settings, CABAC      : Yes
Format settings, ReFrames   : 4 frames
Codec ID                    : V_MPEG4/ISO/AVC
Duration                    : 2 h 11 min
Bit rate mode               : Variable
Bit rate                    : 3 500 kb/s
Maximum bit rate            : 100.0 Mb/s
Width                       : 1 920 pixels
Height                      : 1 080 pixels
Display aspect ratio        : 16:9
Frame rate mode             : Constant
Frame rate                  : 23.976 FPS
Color space                 : YUV
Chroma subsampling          : 4:2:0
Bit depth                   : 8 bits
Scan type                   : Progressive
Bits/(Pixel*Frame)          : 0.070
Stream size                 : 3.21 GiB (74%)
Title                       : Pacific.Rim.2013.1080p.SuperHQ.DTS.x264_hdfile4you.clubhd4you.net
Writing library             : x264 core 130 r2273 b3065e6
Encoding settings           : cabac=1 / ref=4 / deblock=1:0:0 / analyse=0x3:0x113 / me=umh / subme=10 / psy=1 / psy_rd=1.00:0.15 / mixed_ref=1 / me_range=24 / chroma_me=1 / trellis=2 / 8x8dct=1 / cqm=0 / deadzone=21,11 / fast_pskip=1 / chroma_qp_offset=-3 / threads=6 / lookahead_threads=1 / sliced_threads=0 / nr=0 / decimate=1 / interlaced=0 / bluray_compat=0 / constrained_intra=0 / bframes=8 / b_pyramid=2 / b_adapt=2 / b_bias=0 / direct=3 / weightb=1 / open_gop=0 / weightp=2 / keyint=250 / keyint_min=24 / scenecut=40 / intra_refresh=0 / rc_lookahead=60 / rc=2pass / mbtree=1 / bitrate=3500 / ratetol=1.0 / qcomp=0.60 / qpmin=0 / qpmax=69 / qpstep=4 / cplxblur=20.0 / qblur=0.5 / vbv_maxrate=99999 / vbv_bufsize=99999 / nal_hrd=vbr / ip_ratio=1.40 / aq=1:1.00
Language                    : English
Default                     : No
Forced                      : No

Audio #1
ID                          : 2
Format                      : AC-3
Format/Info                 : Audio Coding 3
Mode extension              : CM (complete main)
Format settings, Endianness : Big
Codec ID                    : A_AC3
Duration                    : 2 h 11 min
Bit rate mode               : Constant
Bit rate                    : 448 kb/s
Channel(s)                  : 6 channels
Channel positions           : Front: L C R, Side: L R, LFE
Sampling rate               : 48.0 kHz
Frame rate                  : 31.250 FPS (1536 spf)
Bit depth                   : 16 bits
Compression mode            : Lossy
Stream size                 : 421 MiB (9%)
Title                       : THAI MASTER 5.1 By hdfile4you.clubhd4you.net
Language                    : Thai
Default                     : No
Forced                      : No

Audio #2
ID                          : 3
Format                      : DTS
Format/Info                 : Digital Theater Systems
Mode                        : 16
Format settings, Endianness : Big
Codec ID                    : A_DTS
Duration                    : 2 h 11 min
Bit rate mode               : Constant
Bit rate                    : 755 kb/s
Channel(s)                  : 6 channels
Channel positions           : Front: L C R, Side: L R, LFE
Sampling rate               : 48.0 kHz
Frame rate                  : 93.750 FPS (512 spf)
Bit depth                   : 24 bits
Compression mode            : Lossy
Stream size                 : 709 MiB (16%)
Title                       : eng dts By hdfile4you.clubhd4you.net
Language                    : English
Default                     : Yes
Forced                      : No

Text #1
ID                          : 4
Format                      : VobSub
Muxing mode                 : zlib
Codec ID                    : S_VOBSUB
Codec ID/Info               : Picture based subtitle format used on DVDs
Duration                    : 2 h 10 min
Bit rate                    : 1 709 b/s
Count of elements           : 1663
Stream size                 : 1.60 MiB (0%)
Title                       : [SUB THAI 480P FROM BLU-RAY] By hdfile4you.clubhd4you.net
Language                    : Thai
Default                     : No
Forced                      : No

Text #2
ID                          : 5
Format                      : PGS
Muxing mode                 : zlib
Codec ID                    : S_HDMV/PGS
Codec ID/Info               : Picture based subtitle format used on BDs/HD-DVDs
Duration                    : 2 h 10 min
Bit rate                    : 25.9 kb/s
Count of elements           : 3327
Stream size                 : 24.2 MiB (1%)
Title                       : THAI PGS BLU-RAY MASTER By hdfile4you.clubhd4you.net
Language                    : Thai
Default                     : No
Forced                      : No

Text #3
ID                          : 6
Format                      : VobSub
Muxing mode                 : zlib
Codec ID                    : S_VOBSUB
Codec ID/Info               : Picture based subtitle format used on DVDs
Duration                    : 2 h 10 min
Bit rate                    : 2 036 b/s
Count of elements           : 1835
Stream size                 : 1.90 MiB (0%)
Title                       : eng 480p By hdfile4you.clubhd4you.net
Language                    : English
Default                     : Yes
Forced                      : No




ลิ๊งเดียวจบ

ตั้งชื่อไฟล์ตามแบบนี้เท่านั้น

1.Pacific Rim.part1.rar
2.Pacific Rim.part2.rar
3.Pacific Rim.part3.rar
4.Pacific Rim.part4.rar
5.Pacific Rim.part5.rar

ปล.  -- Winrar ใส่ Recovery Record 5% ทุกไฟล์ครับ --

บทความที่เกี่ยวข้อง

รายละเอียดไฟล์แนบ
กล่องตอบกลับด่วน

คุณไม่มีสิทธิ์ใช้งานส่วนนี้, กรุณาเข้าสู่ระบบ หรือ ลงทะเบียน
กรุณาใช้ข้อความที่สุภาพ คุณสามารถบันทึกฉบับร่างได้