ประยุกต์ใช้ ระบบเหรียญ โพสล่าสุด โพสสำคัญ เครื่องมือ สมาชิก สถิติฟอรั่ม ระบบธนาคาร

  • 364เข้าชม
  • 2ตอบกลับ

[FullHQ+SuperHQ มาสเตอร์มาแล้ว] Blair Witch (2016) : ตำนานผีดุ [1080p][พากย์ไทย5.1+อังกฤษDTS][บรรยาย

เพศ : ชาย

โพสต์ : 3091

สำคัญ : 0

เงิน : 0
ความดี : 3092
เครดิต : 2767
จิตพิสัย: 3092
ออนไลน์ : 215 ชม
[FullHQ+SuperHQ มาสเตอร์มาแล้ว] Blair Witch (2016) : ตำนานผีดุ [1080p][พากย์ไทย5.1+อังกฤษDTS][บรรยายไทย+อังกฤษ]
http://www.imdb.com/title/tt1540011/  5.1/10
18,321 votes


Blair Witch: เตรียมพบกับปรากฏการณ์สยองขวัญครั้งใหม่ ที่จะทำให้หลอนจนไม่มีวันลืม เรื่องราวของกลุ่มวัยรุ่นกลุ่มหนึ่งที่ไปเที่ยวตั้งแคมป์กันในป่า ช่วงเวลาพักร้อนครั้งนี้ ดูเหมือนจะเป็นเวลาที่ให้พวกเขาได้พักกายพักใจ ลืมเรื่องราวอันวุ่นวายในตัวเมืองไปเสียให้หมด แต่เมื่อเวลาผ่านไป พวกเขากลับเริ่มรู้สึกว่า มีบางสิ่งที่คืบคลานอยู่ในป่า เข้าใกล้ตัวขึ้นมาเรื่อยๆ และที่ยิ่งไปกว่านั้นคือ สิ่งที่คืบคลานอยู่ในความมืดนั้น จ้องจะเอาชีวิตของพวกเขาอย่างโหดเหี้ยม สร้างความสยองที่หลายสำนักต่างการันตีว่า นี่เป็นหนึ่งในหนังผีที่น่ากลัวที่สุดที่โลกเคยสัมผัส!!!

General
Unique ID                   : 202682695024360494990090399653864853536 (0x987B44645015023B82072EAE6DE6D020)
Complete name               : D:\Upl\Blair.Witch.2016.1080p.BrRip.SuperHQ.DTS.x264_hdfile4you.clubhd4you.net.mkv
Format                      : Matroska
Format version              : Version 4 / Version 2
File size                   : 3.86 GiB
Duration                    : 1 h 29 min
Overall bit rate            : 6 212 kb/s
Movie name                  : Blair.Witch.2016.1080p.BrRip.SuperHQ.DTS.x264_hdfile4you.clubhd4you.net
Encoded date                : UTC 2017-01-12 03:11:29
Writing application         : mkvmerge v9.7.1 ('Pandemonium') 32bit
Writing library             : libebml v1.3.4 + libmatroska v1.4.5

Video
ID                          : 1
Format                      : AVC
Format/Info                 : Advanced Video Codec
Format profile              : [email protected]
Format settings, CABAC      : Yes
Format settings, ReFrames   : 4 frames
Codec ID                    : V_MPEG4/ISO/AVC
Duration                    : 1 h 29 min
Bit rate                    : 4 949 kb/s
Width                       : 1 920 pixels
Height                      : 1 040 pixels
Display aspect ratio        : 1.85:1
Frame rate mode             : Constant
Frame rate                  : 23.976 FPS
Color space                 : YUV
Chroma subsampling          : 4:2:0
Bit depth                   : 8 bits
Scan type                   : Progressive
Bits/(Pixel*Frame)          : 0.103
Stream size                 : 3.08 GiB (80%)
Title                       : Blair.Witch.2016.1080p.BrRip.SuperHQ.DTS.x264_hdfile4you.clubhd4you.net
Writing library             : x264 core 130 r2273 b3065e6
Encoding settings           : cabac=1 / ref=3 / deblock=1:0:0 / analyse=0x3:0x113 / me=umh / subme=11 / psy=1 / psy_rd=1.00:0.00 / mixed_ref=1 / me_range=48 / chroma_me=1 / trellis=2 / 8x8dct=1 / cqm=0 / deadzone=21,11 / fast_pskip=1 / chroma_qp_offset=-2 / threads=10 / lookahead_threads=1 / sliced_threads=0 / nr=0 / decimate=1 / interlaced=0 / bluray_compat=0 / constrained_intra=0 / bframes=3 / b_pyramid=2 / b_adapt=1 / b_bias=0 / direct=1 / weightb=1 / open_gop=0 / weightp=2 / keyint=240 / keyint_min=24 / scenecut=40 / intra_refresh=0 / rc_lookahead=40 / rc=2pass / mbtree=1 / bitrate=4949 / ratetol=1.0 / qcomp=0.60 / qpmin=0 / qpmax=69 / qpstep=4 / cplxblur=20.0 / qblur=0.5 / ip_ratio=1.40 / aq=1:1.00
Language                    : English
Default                     : Yes
Forced                      : No
Color range                 : Limited
Color primaries             : BT.709
Transfer characteristics    : BT.709
Matrix coefficients         : BT.709

Audio #1
ID                          : 2
Format                      : AC-3
Format/Info                 : Audio Coding 3
Mode extension              : CM (complete main)
Format settings, Endianness : Big
Codec ID                    : A_AC3
Duration                    : 1 h 29 min
Bit rate mode               : Constant
Bit rate                    : 448 kb/s
Channel(s)                  : 6 channels
Channel positions           : Front: L C R, Side: L R, LFE
Sampling rate               : 48.0 kHz
Frame rate                  : 31.250 FPS (1536 spf)
Bit depth                   : 16 bits
Compression mode            : Lossy
Delay relative to video     : 100 ms
Stream size                 : 285 MiB (7%)
Title                       : Thai DVD Master 5.1 By hdfile4you.clubhd4you.net
Language                    : Thai
Default                     : Yes
Forced                      : Yes

Audio #2
ID                          : 3
Format                      : DTS
Format/Info                 : Digital Theater Systems
Mode                        : 16
Format settings, Endianness : Big
Codec ID                    : A_DTS
Duration                    : 1 h 29 min
Bit rate mode               : Constant
Bit rate                    : 755 kb/s
Channel(s)                  : 6 channels
Channel positions           : Front: L C R, Side: L R, LFE
Sampling rate               : 48.0 kHz
Frame rate                  : 93.750 FPS (512 spf)
Bit depth                   : 24 bits
Compression mode            : Lossy
Stream size                 : 480 MiB (12%)
Title                       : English DTS By hdfile4you.clubhd4you.net
Language                    : English
Default                     : No
Forced                      : No

Text #1
ID                          : 4
Format                      : VobSub
Muxing mode                 : zlib
Codec ID                    : S_VOBSUB
Codec ID/Info               : Picture based subtitle format used on DVDs
Duration                    : 1 h 21 min
Bit rate                    : 1 786 b/s
Count of elements           : 907
Stream size                 : 1.05 MiB (0%)
Title                       : Thai 480p From DVD Master By hdfile4you.clubhd4you.net
Language                    : Thai
Default                     : No
Forced                      : No

Text #2
ID                          : 5
Format                      : VobSub
Muxing mode                 : zlib
Codec ID                    : S_VOBSUB
Codec ID/Info               : Picture based subtitle format used on DVDs
Duration                    : 1 h 21 min
Bit rate                    : 2 577 b/s
Count of elements           : 907
Stream size                 : 1.51 MiB (0%)
Title                       : Thai 720p By hdfile4you.clubhd4you.net
Language                    : Thai
Default                     : No
Forced                      : No

Text #3
ID                          : 6
Format                      : VobSub
Muxing mode                 : zlib
Codec ID                    : S_VOBSUB
Codec ID/Info               : Picture based subtitle format used on DVDs
Duration                    : 1 h 21 min
Bit rate                    : 4 162 b/s
Count of elements           : 907
Stream size                 : 2.44 MiB (0%)
Title                       : Thai 1080p By hdfile4you.clubhd4you.net
Language                    : Thai
Default                     : Yes
Forced                      : Yes

Text #4
ID                          : 7
Format                      : VobSub
Muxing mode                 : zlib
Codec ID                    : S_VOBSUB
Codec ID/Info               : Picture based subtitle format used on DVDs
Duration                    : 1 h 21 min
Bit rate                    : 4 153 b/s
Count of elements           : 907
Stream size                 : 2.44 MiB (0%)
Title                       : Thai 1080p Yellow By hdfile4you.clubhd4you.net
Language                    : Thai
Default                     : No
Forced                      : No

Text #5
ID                          : 8
Format                      : VobSub
Muxing mode                 : zlib
Codec ID                    : S_VOBSUB
Codec ID/Info               : Picture based subtitle format used on DVDs
Duration                    : 1 h 21 min
Bit rate                    : 5 432 b/s
Count of elements           : 907
Stream size                 : 3.19 MiB (0%)
Title                       : Thai 1080p BIG By hdfile4you.clubhd4you.net
Language                    : Thai
Default                     : No
Forced                      : No

Text #6
ID                          : 9
Format                      : PGS
Muxing mode                 : zlib
Codec ID                    : S_HDMV/PGS
Codec ID/Info               : Picture based subtitle format used on BDs/HD-DVDs
Duration                    : 1 h 21 min
Bit rate                    : 13.9 kb/s
Count of elements           : 1814
Stream size                 : 8.17 MiB (0%)
Title                       : Thai PGS By hdfile4you.clubhd4you.net
Language                    : Thai
Default                     : No
Forced                      : No

Text #7
ID                          : 10
Format                      : PGS
Muxing mode                 : zlib
Codec ID                    : S_HDMV/PGS
Codec ID/Info               : Picture based subtitle format used on BDs/HD-DVDs
Duration                    : 1 h 21 min
Bit rate                    : 14.3 kb/s
Count of elements           : 1814
Stream size                 : 8.38 MiB (0%)
Title                       : Thai PGS Yellow By hdfile4you.clubhd4you.net
Language                    : Thai
Default                     : No
Forced                      : No

Text #8
ID                          : 11
Format                      : PGS
Muxing mode                 : zlib
Codec ID                    : S_HDMV/PGS
Codec ID/Info               : Picture based subtitle format used on BDs/HD-DVDs
Duration                    : 33 min 14 s
Bit rate                    : 28.8 kb/s
Count of elements           : 2
Stream size                 : 6.84 MiB (0%)
Title                       : English By hdfile4you.clubhd4you.net
Language                    : English
Default                     : No
Forced                      : No
FullHQ 1080p
SuperHQ 1080p
MiniHD 1080p
MiniHD 720p


ลิ๊งเดียวจบ

ตั้งชื่อไฟล์ตามแบบนี้เท่านั้น

1.Blair Witch.part1.rar
2.Blair Witch.part2.rar
3.Blair Witch.part3.rar
4.Blair Witch.part4.rar
5.Blair Witch.part5.rar

ปล.  -- Winrar ใส่ Recovery Record 5% ทุกไฟล์ครับ --

บทความที่เกี่ยวข้อง

ระดับ : เด็กประถม
เพศ : ชาย

โพสต์ : 65

สำคัญ : 0

เงิน : 0
ความดี : 78
เครดิต : 1
จิตพิสัย: 78
ออนไลน์ : 37 ชม
  
นักช่างฝัน
เพศ : ไม่ระบุเพศ

โพสต์ : 32

สำคัญ : 0

เงิน : 0
ความดี : 44
เครดิต : 2
จิตพิสัย: 44
ออนไลน์ : 194 ชม
ขอบคุณครับ
รายละเอียดไฟล์แนบ
กล่องตอบกลับด่วน

คุณไม่มีสิทธิ์ใช้งานส่วนนี้, กรุณาเข้าสู่ระบบ หรือ ลงทะเบียน
สามารถอัพโหลดไฟล์แนบ สำหรับโพสได้