ประยุกต์ใช้ ระบบเหรียญ โพสล่าสุด โพสสำคัญ เครื่องมือ สมาชิก สถิติฟอรั่ม ระบบธนาคาร

  • 694เข้าชม
  • 6ตอบกลับ

[FullHQ+SuperHQ มาสเตอร์มาแล้ว] Deepwater Horizon (2016) : ฝ่าวิบัติเพลิงนรก [1080p][พากย์ไทย5.1+อัง

เพศ : ชาย

โพสต์ : 3216

สำคัญ : 0

เงิน : 0
ความดี : 3217
เครดิต : 2892
จิตพิสัย: 3217
ออนไลน์ : 218 ชม
[FullHQ+SuperHQ มาสเตอร์มาแล้ว] Deepwater Horizon (2016) : ฝ่าวิบัติเพลิงนรก [1080p][พากย์ไทย5.1+อังกฤษDTS][บรรยายไทย+อังกฤษ]
http://www.imdb.com/title/tt1860357/  7.3/10
47,709 votes


Deepwater Horizon  : ภาพยนตร์แนวมหันตภัยฟอร์มยักษ์ ที่สร้างมาจากเรื่องจริงของเหตุการณ์แท่นขุดเจาะน้ำมันระเบิดครั้งที่ยิ่งใหญ่ที่สุดครั้งหนึ่งในหน้าประวัติศาสตร์ โดยภาพยนตร์บอกเล่าถึงความกล้าหาญของเหล่าบรรดาคนงานบนแท่นขุดเจาะน้ำมันดิบชื่อว่า   ดีปวอเทอร์ ฮอไรซัน    ในอ่าวเม็กซิโกเมื่อปี 2010 ที่ต้องพยายามเอาชีวิตทั้งของตนเองและพวกพ้องให้รอดจากมหันตภัยครั้งนี้ ซึ่งนับเป็นเหตุการณ์ท้าทายขีดจำกัดของมนุษย์ที่ถูกบันทึกไว้ว่าเป็น การรั่วไหลนอกชายฝั่งครั้งที่ใหญ่ที่สุดในประวัติศาสตร์สหรัฐอเมริกา!!!

General
Unique ID                   : 245039748256138954002951348464084740531 (0xB858F059FDD0B70782FCD573F46A69B3)
Complete name               : D:\Upl\Deepwater.Horizon.2016.1080p.BrRip.SuperHQ.DTS.x264_hdfile4you.clubhd4you.net.mkv
Format                      : Matroska
Format version              : Version 4 / Version 2
File size                   : 3.91 GiB
Duration                    : 1 h 47 min
Overall bit rate            : 5 228 kb/s
Movie name                  : Deepwater.Horizon.2016.1080p.BrRip.SuperHQ.DTS.x264_hdfile4you.clubhd4you.net
Encoded date                : UTC 2017-01-12 03:15:13
Writing application         : mkvmerge v9.7.1 ('Pandemonium') 32bit
Writing library             : libebml v1.3.4 + libmatroska v1.4.5

Video
ID                          : 1
Format                      : AVC
Format/Info                 : Advanced Video Codec
Format profile              : [email protected]
Format settings, CABAC      : Yes
Format settings, ReFrames   : 4 frames
Codec ID                    : V_MPEG4/ISO/AVC
Duration                    : 1 h 47 min
Bit rate                    : 3 909 kb/s
Width                       : 1 920 pixels
Height                      : 800 pixels
Display aspect ratio        : 2.40:1
Frame rate mode             : Constant
Frame rate                  : 23.976 (24000/1001) FPS
Color space                 : YUV
Chroma subsampling          : 4:2:0
Bit depth                   : 8 bits
Scan type                   : Progressive
Bits/(Pixel*Frame)          : 0.106
Stream size                 : 2.92 GiB (75%)
Title                       : Deepwater.Horizon.2016.1080p.BrRip.SuperHQ.DTS.x264_hdfile4you.clubhd4you.net
Writing library             : x264 core 130 r2273 b3065e6
Encoding settings           : cabac=1 / ref=3 / deblock=1:0:0 / analyse=0x3:0x113 / me=umh / subme=11 / psy=1 / psy_rd=1.00:0.00 / mixed_ref=1 / me_range=48 / chroma_me=1 / trellis=2 / 8x8dct=1 / cqm=0 / deadzone=21,11 / fast_pskip=1 / chroma_qp_offset=-2 / threads=10 / lookahead_threads=1 / sliced_threads=0 / nr=0 / decimate=1 / interlaced=0 / bluray_compat=0 / constrained_intra=0 / bframes=3 / b_pyramid=2 / b_adapt=1 / b_bias=0 / direct=1 / weightb=1 / open_gop=0 / weightp=2 / keyint=240 / keyint_min=24 / scenecut=40 / intra_refresh=0 / rc_lookahead=40 / rc=2pass / mbtree=1 / bitrate=3909 / ratetol=1.0 / qcomp=0.60 / qpmin=0 / qpmax=69 / qpstep=4 / cplxblur=20.0 / qblur=0.5 / ip_ratio=1.40 / aq=1:1.00
Language                    : English
Default                     : Yes
Forced                      : No
Color range                 : Limited
Color primaries             : BT.709
Transfer characteristics    : BT.709
Matrix coefficients         : BT.709

Audio #1
ID                          : 2
Format                      : AC-3
Format/Info                 : Audio Coding 3
Mode extension              : CM (complete main)
Format settings, Endianness : Big
Codec ID                    : A_AC3
Duration                    : 1 h 45 min
Bit rate mode               : Constant
Bit rate                    : 448 kb/s
Channel(s)                  : 6 channels
Channel positions           : Front: L C R, Side: L R, LFE
Sampling rate               : 48.0 kHz
Frame rate                  : 31.250 FPS (1536 spf)
Bit depth                   : 16 bits
Compression mode            : Lossy
Stream size                 : 337 MiB (8%)
Title                       : Thai DVD Master 5.1 By hdfile4you.clubhd4you.net
Language                    : Thai
Default                     : Yes
Forced                      : Yes

Audio #2
ID                          : 3
Format                      : DTS
Format/Info                 : Digital Theater Systems
Mode                        : 16
Format settings, Endianness : Big
Codec ID                    : A_DTS
Duration                    : 1 h 47 min
Bit rate mode               : Constant
Bit rate                    : 768 kb/s
Channel(s)                  : 6 channels
Channel positions           : Front: L C R, Side: L R, LFE
Sampling rate               : 48.0 kHz
Frame rate                  : 93.750 FPS (512 spf)
Bit depth                   : 24 bits
Compression mode            : Lossy
Stream size                 : 588 MiB (15%)
Title                       : English DTS hdfile4you.clubhd4you.net
Language                    : English
Default                     : No
Forced                      : No

Text #1
ID                          : 4
Format                      : VobSub
Muxing mode                 : zlib
Codec ID                    : S_VOBSUB
Codec ID/Info               : Picture based subtitle format used on DVDs
Duration                    : 1 h 38 min
Bit rate                    : 2 600 b/s
Count of elements           : 1560
Stream size                 : 1.83 MiB (0%)
Title                       : Thai 480p From DVD Master hdfile4you.clubhd4you.net
Language                    : Thai
Default                     : No
Forced                      : No

Text #2
ID                          : 5
Format                      : VobSub
Muxing mode                 : zlib
Codec ID                    : S_VOBSUB
Codec ID/Info               : Picture based subtitle format used on DVDs
Duration                    : 1 h 38 min
Bit rate                    : 4 224 b/s
Count of elements           : 1560
Stream size                 : 2.97 MiB (0%)
Title                       : Thai 720p hdfile4you.clubhd4you.net
Language                    : Thai
Default                     : No
Forced                      : No

Text #3
ID                          : 6
Format                      : VobSub
Muxing mode                 : zlib
Codec ID                    : S_VOBSUB
Codec ID/Info               : Picture based subtitle format used on DVDs
Duration                    : 1 h 38 min
Bit rate                    : 6 827 b/s
Count of elements           : 1560
Stream size                 : 4.81 MiB (0%)
Title                       : Thai 1080p hdfile4you.clubhd4you.net
Language                    : Thai
Default                     : Yes
Forced                      : Yes

Text #4
ID                          : 7
Format                      : VobSub
Muxing mode                 : zlib
Codec ID                    : S_VOBSUB
Codec ID/Info               : Picture based subtitle format used on DVDs
Duration                    : 1 h 38 min
Bit rate                    : 6 819 b/s
Count of elements           : 1560
Stream size                 : 4.80 MiB (0%)
Title                       : Thai 1080p Yellow hdfile4you.clubhd4you.net
Language                    : Thai
Default                     : No
Forced                      : No

Text #5
ID                          : 8
Format                      : VobSub
Muxing mode                 : zlib
Codec ID                    : S_VOBSUB
Codec ID/Info               : Picture based subtitle format used on DVDs
Duration                    : 1 h 38 min
Bit rate                    : 6 844 b/s
Count of elements           : 1560
Stream size                 : 4.82 MiB (0%)
Title                       : Thai 1080p Out hdfile4you.clubhd4you.net
Language                    : Thai
Default                     : No
Forced                      : No

Text #6
ID                          : 9
Format                      : VobSub
Muxing mode                 : zlib
Codec ID                    : S_VOBSUB
Codec ID/Info               : Picture based subtitle format used on DVDs
Duration                    : 1 h 38 min
Bit rate                    : 8 924 b/s
Count of elements           : 1560
Stream size                 : 6.28 MiB (0%)
Title                       : Thai 1080p BIG hdfile4you.clubhd4you.net
Language                    : Thai
Default                     : No
Forced                      : No

Text #7
ID                          : 10
Format                      : VobSub
Muxing mode                 : zlib
Codec ID                    : S_VOBSUB
Codec ID/Info               : Picture based subtitle format used on DVDs
Duration                    : 1 h 38 min
Bit rate                    : 8 944 b/s
Count of elements           : 1560
Stream size                 : 6.30 MiB (0%)
Title                       : Thai 1080p Out [BIG] hdfile4you.clubhd4you.net
Language                    : Thai
Default                     : No
Forced                      : No

Text #8
ID                          : 11
Format                      : PGS
Muxing mode                 : zlib
Codec ID                    : S_HDMV/PGS
Codec ID/Info               : Picture based subtitle format used on BDs/HD-DVDs
Duration                    : 1 h 38 min
Bit rate                    : 22.5 kb/s
Count of elements           : 3120
Stream size                 : 15.8 MiB (0%)
Title                       : Thai PGS hdfile4you.clubhd4you.net
Language                    : Thai
Default                     : No
Forced                      : No

Text #9
ID                          : 12
Format                      : PGS
Muxing mode                 : zlib
Codec ID                    : S_HDMV/PGS
Codec ID/Info               : Picture based subtitle format used on BDs/HD-DVDs
Duration                    : 1 h 38 min
Bit rate                    : 22.9 kb/s
Count of elements           : 3120
Stream size                 : 16.1 MiB (0%)
Title                       : Thai PGS Yellow hdfile4you.clubhd4you.net
Language                    : Thai
Default                     : No
Forced                      : No

Text #10
ID                          : 13
Format                      : PGS
Muxing mode                 : zlib
Codec ID                    : S_HDMV/PGS
Codec ID/Info               : Picture based subtitle format used on BDs/HD-DVDs
Duration                    : 1 h 38 min
Bit rate                    : 22.3 kb/s
Count of elements           : 3120
Stream size                 : 15.7 MiB (0%)
Title                       : Thai PGS Out hdfile4you.clubhd4you.net
Language                    : Thai
Default                     : No
Forced                      : No

Text #11
ID                          : 14
Format                      : VobSub
Muxing mode                 : zlib
Codec ID                    : S_VOBSUB
Codec ID/Info               : Picture based subtitle format used on DVDs
Duration                    : 1 h 36 min
Bit rate                    : 6 759 b/s
Count of elements           : 1488
Stream size                 : 4.67 MiB (0%)
Title                       : English hdfile4you.clubhd4you.net
Language                    : English
Default                     : No
Forced                      : No
FullHQ 1080p
SuperHQ 1080p
MiniHD 1080p
MiniHD 720p


ลิ๊งเดียวจบ

ตั้งชื่อไฟล์ตามแบบนี้เท่านั้น

1.Deepwater Horizon.part1.rar
2.Deepwater Horizon.part2.rar
3.Deepwater Horizon.part3.rar
4.Deepwater Horizon.part4.rar
5.Deepwater Horizon.part5.rar

ปล.  -- Winrar ใส่ Recovery Record 5% ทุกไฟล์ครับ --



บทความที่เกี่ยวข้อง

ระดับ : เด็กประถม
เพศ : ไม่ระบุเพศ

โพสต์ : 264

สำคัญ : 0

เงิน : 0
ความดี : 265
เครดิต : 1
จิตพิสัย: 265
ออนไลน์ : 71 ชม
thankyou
ระดับ : เด็กมัธยม
เพศ : ชาย

โพสต์ : 495

สำคัญ : 0

เงิน : 0
ความดี : 1185
เครดิต : 1
จิตพิสัย: 1185
ออนไลน์ : 158 ชม
ขอบคุณครับ
ระดับ : เด็กมัธยม
เพศ : ไม่ระบุเพศ

โพสต์ : 381

สำคัญ : 0

เงิน : 0
ความดี : 533
เครดิต : 1
จิตพิสัย: 533
ออนไลน์ : 273 ชม
ขอบคุณครับ
ระดับ : เด็กประถม
เพศ : ไม่ระบุเพศ

โพสต์ : 60

สำคัญ : 0

เงิน : 0
ความดี : 61
เครดิต : 1
จิตพิสัย: 61
ออนไลน์ : 48 ชม
thank you so much
เพศ : ไม่ระบุเพศ

โพสต์ : 739

สำคัญ : 0

เงิน : 0
ความดี : 1175
เครดิต : 3
จิตพิสัย: 1175
ออนไลน์ : 389 ชม
thank you verymuch.................................................................................................................
เพศ : ไม่ระบุเพศ

โพสต์ : 634

สำคัญ : 0

เงิน : 0
ความดี : 699
เครดิต : 1
จิตพิสัย: 699
ออนไลน์ : 248 ชม
ขอบคุณครับ
รายละเอียดไฟล์แนบ
กล่องตอบกลับด่วน

คุณไม่มีสิทธิ์ใช้งานส่วนนี้, กรุณาเข้าสู่ระบบ หรือ ลงทะเบียน
กรุณาใช้ข้อความที่สุภาพ คุณสามารถบันทึกฉบับร่างได้